Turbo [2013][3D H-SBS 1080p][Ing-Lat]

TITULO ORIGINAL: Turbo
ANO: 2013
DURACION: 96 min.
PAIS: USA
DIRECTOR: David Soren
GUION: Darren Lemke, David Soren, Robert D. Siegel
REPARTO: Animation
PRODUCTORA: Dreamworks Animation
GENERO: Animacion. Comedia. Infantil | Coches / Automovilismo. Cine familiar. 3-D
http://www.imdb.com/title/tt1860353/
Sinopsis: Turbo es un caracol de jardin con un sueno imposible: convertirse en el caracol mas rapido del mundo. Cuando un extrano accidente le da el poder de la super-velocidad, Turbo intentara cumplir su sueno. Primero se hara amigo de una peculiar pandilla de caracoles callejeros tuneados y obsesionados con la velocidad, y alli Turbo aprendera que nadie llega a tener exito por si solo. Asi que coloca su corazon y su concha en la linea de salida dispuesto a ayudar a sus colegas a lograr sus suenos, antes de intentar alcanzar su sueno imposible: ganar las 500 millas de Indianapolis
Trailer
http://www.youtube.com/watch?v=4aKZ6Sxx9Rs&feature=youtu.be

General
Format : Matroska
Format version : Version 3 / Version 2
File size : 8.03 GiB
Duration : 1h 35mn
Overall bit rate : 12.0 Mbps
Encoded date : UTC 2013-11-17 14:25:10
Writing application : mkvmerge v5.7.0 (The Whirlwind) built on Jul 8 2012 20:08:51
Writing library : libebml v1.2.3 + libmatroska v1.3.0
Video
ID : 1
Format : AVC
Format/Info : Advanced Video Codec
Format profile : [email protected]
MultiView_Count : 2
MultiView_Layout : Side by Side (left eye first)
Format settings, CABAC : Yes
Format settings, ReFrames : 4 frames
Codec ID : V_MPEG4/ISO/AVC
Duration : 1h 35mn
Bit rate : 9 177 Kbps
Width : 1 920 pixels
Height : 1 080 pixels
Display aspect ratio : 16:9
Frame rate mode : Constant
Frame rate : 23.976 fps
Color space : YUV
Chroma subsampling : 4:2:0
Bit depth : 8 bits
Scan type : Progressive
Bits/(Pixel*Frame) : 0.185
Stream size : 6.14 GiB (76%)
Language : English
Default : Yes
Forced : No
Audio #1
ID : 2
Format : AC-3
Format/Info : Audio Coding 3
Mode extension : CM (complete main)
Format settings, Endianness : Big
Codec ID : A_AC3
Duration : 1h 35mn
Bit rate mode : Constant
Bit rate : 448 Kbps
Channel(s) : 6 channels
Channel positions : Front: L C R, Side: L R, LFE
Sampling rate : 48.0 KHz
Bit depth : 16 bits
Compression mode : Lossy
Stream size : 307 MiB (4%)
Title : AC3
Language : Spanish
Default : Yes
Forced : No
Audio #2
ID : 3
Format : AC-3
Format/Info : Audio Coding 3
Mode extension : CM (complete main)
Format settings, Endianness : Big
Codec ID : A_AC3
Duration : 1h 35mn
Bit rate mode : Constant
Bit rate : 640 Kbps
Channel(s) : 6 channels
Channel positions : Front: L C R, Side: L R, LFE
Sampling rate : 48.0 KHz
Bit depth : 16 bits
Compression mode : Lossy
Stream size : 438 MiB (5%)
Title : AC3
Language : English
Default : No
Forced : No
Audio #3
ID : 4
Format : DTS
Format/Info : Digital Theater Systems
Format profile : ES
Mode : 16
Format settings, Endianness : Big
Codec ID : A_DTS
Duration : 1h 35mn
Bit rate mode : Constant
Bit rate : 1 509 Kbps
Channel(s) : 6 channels
Channel positions : Front: L C R, Side: L R, LFE
Sampling rate : 48.0 KHz
Bit depth : 24 bits
Compression mode : Lossy
Delay relative to video : 11ms
Stream size : 1.01 GiB (13%)
Title : DTS
Language : English
Default : No
Forced : No
Text
ID : 5
Format : VobSub
Muxing mode : zlib
Codec ID : S_VOBSUB
Codec ID/Info : The same subtitle format used on DVDs
Language : Spanish
Default : Yes
Forced : No




http://filejoker.net/4iae90291sbb/trbolb3d.part01.rar
http://filejoker.net/tl7mjbpya19y/trbolb3d.part02.rar
http://filejoker.net/et5q25oega8a/trbolb3d.part03.rar
http://filejoker.net/65gt3fioo5ng/trbolb3d.part04.rar
http://filejoker.net/3fx7p08qpjv2/trbolb3d.part05.rar
http://filejoker.net/oprbxn24qi46/trbolb3d.part06.rar
http://filejoker.net/h2hdvuwlo6xf/trbolb3d.part07.rar
http://filejoker.net/i5fan3c47apt/trbolb3d.part08.rar
http://filejoker.net/jcdjt9t1og40/trbolb3d.part09.rar
http://filejoker.net/tky1mkq8oa0g/trbolb3d.part10.rar

Random Posts

Deja un comentario

Tu dirección de correo electrónico no será publicada. Los campos obligatorios están marcados con *

*
*